Transformers 3 Dark Of The Moon.2011.720p.BRRip.Xvid.AC3- SiNiST...

  • Category Movies
  • Type h.264/x264
  • Language English
  • Total size 3.7 GB
  • Uploaded By wolfmaner
  • Downloads 710
  • Last checked 8 months ago
  • Date uploaded 7 years ago
  • Seeders 0
  • Leechers 0

Transformers: Dark of the Moon

ActionAdventureScience Fiction

Sam Witwicky takes his first tenuous steps into adulthood while remaining a reluctant human ally of Autobot-leader Optimus Prime. The film centers around the space race between the USSR and the USA, suggesting there was a hidden Transformers role in it all that remains one of the planet's most dangerous secrets.

Infohash : C18DA90952345C389C497278C0CA6514F00D272B

*******************************************************************************
Transformers 3 Dark Of The Moon.2011.720p.BRRip.Xvid.AC3- SiNiSTER
*******************************************************************************
-------------------------------------------------------------------------------
General Information
-------------------------------------------------------------------------------

Format : AVI
Format/Info : Audio Video Interleave
Format profile : OpenDML
File size : 3.67 GiB
Duration : 2h 34mn
Overall bit rate : 3 405 Kbps
Writing library : MPlayer
Video
ID : 0
Format : MPEG-4 Visual
Format profile : Advanced [email protected]
Format settings, BVOP : 1
Format settings, QPel : No
Format settings, GMC : No warppoints
Format settings, Matrix : Default (H.263)
Muxing mode : Packed bitstream
Codec ID : XVID
Codec ID/Hint : XviD
Duration : 2h 34mn
Bit rate : 2 761 Kbps
Width : 1 280 pixels
Height : 532 pixels
Display aspect ratio : 2.40:1
Frame rate : 23.976 fps
Color space : YUV
Chroma subsampling : 4:2:0
Bit depth : 8 bits
Compression mode : Lossy
Bits/(Pixel*Frame) : 0.169
Stream size : 2.98 GiB (81%)
Writing library : XviD 1.2.1 (UTC 2008-12-04)
Audio
ID : 1
Format : AC-3
Format/Info : Audio Coding 3
Mode extension : CM (complete main)
Codec ID : 2000
Duration : 2h 34mn
Bit rate mode : Constant
Bit rate : 640 Kbps
Channel(s) : 6 channels
Channel positions : Front: L C R, Side: L R, LFE
Sampling rate : 48.0 KHz
Bit depth : 16 bits
Compression mode : Lossy
Stream size : 707 MiB (19%)
Alignment : Split accross interleaves
Interleave, duration : 500 ms (11.99 video frames)
Interleave, preload duration : 500 ms
Video Source: Transformers.Dark.Of.The.Moon.2011.1080p.BluRay.x264-SECTOR7.....thanks
Audio Source: Transformers.Dark.Of.The.Moon.2011.1080p.BluRay.x264-SECTOR7.....thanks
Greets:
DarkScene,HDScene,Noir,CrEwSaDe,blackjesus,ViSiON,HDLiTE,UnKnOwN,IMAGiNE,
FLAWL3SS,Rx,ELEKTRI4KA,CiNEDUB,BDK,SAFCuk009,HiVE-CM8..... and everybody else we
respect.. u know who u are
-------------------------------------------------------------------------------
Post Information
-------------------------------------------------------------------------------
Encoded by...........: SiNiSTER

Have sumthing to offer..looking for suppliers... cammers,cams,screeners, audio
supplier.. and any pre retail DVD/BR any RC...if u can provide any email us at
[email protected]
-------------------------------------------------------------------------------
Release Notes
-------------------------------------------------------------------------------
source was very nice just made s script to resize, adjust coloring slightly and
sharpen.. then just muxed the AC3 to my encode.... enjoy
-------------------------------------------------------------------------------
ScreenShots
-------------------------------------------------------------------------------





-------------------------------------------------------------------------------

-------------------------------------------------------------------------------
Generated with Cool NFO Creator - http://fly.to/coolbeans
-------------------------------------------------------------------------------

Files:

  • Transformers 3 Dark Of The Moon.2011.720p.BRRip.Xvid.AC3- SiNiSTER.avi (3.7 GB)
  • vlcsnap-00004.png (1.4 MB)
  • vlcsnap-00002.png (1.0 MB)
  • vlcsnap-00003.png (945.5 KB)
  • vlcsnap-00001.png (790.3 KB)
  • Transformers 3 Dark Of The Moon.2011.720p.BRRip.Xvid.AC3- SiNiSTER.jpg (196.9 KB)
  • SiNiSTER NFO.nfo (4.7 KB)
  • enjoy.txt (0.0 KB)
  • sceneunderground org.txt (0.0 KB)

There are currently no comments. Feel free to leave one :)

Code:

  • http://9.rarbg.com:2710/announce
  • http://pow7.com:80/announce
  • http://secure.pow7.com/announce
  • http://t1.pow7.com/announce
  • http://pow7.com/announce
  • http://tracker.torrent.to:2710/announce
  • udp://tracker.1337x.org:80/announce
  • udp://tracker.publicbt.com:80/announce
  • udp://tracker.openbittorrent.com:80/announce
SitemapHistórico | 설날특집 불타는 청춘.E190.190205.720… | Les yeux baisss